La Era de Hielo 4 (2012) [3D SBS][BDRip 1080p][Espa?ol Latino 5.1/Ingles DTS]

  • La Era de Hielo 4 (2012) [3D SBS][BDRip 1080p][Espa?ol Latino 5.1/Ingles DTS]






  • La loca persecuci?n de Scrat por su escurridiza bellota desde el principio de los tiempos, tiene consecuencias que cambiar?n el mundo: un cataclismo continental que desencadenar? la mayor de las aventuras para Manny, Diego y Sid. En medio de estas agitaciones, Sid se reencuentra con su Abuelita Gru?ona y la manada tropieza con una extra?a cuadrilla de piratas de altamar decididos a impedirles su regreso a casa.



    T?tulo: Ice Age 4: La formaci?n de los continentes
    T?tulo original: Ice Age: Continental Drift
    Pa?s: USA
    Estreno en USA: 13/07/2012
    Estreno en Espa?a: 29/06/2012
    Blu-ray 3D: 28/11/2012
    Estreno en Blu-ray: 28/11/2012
    Productora: 20th Century Fox
    Director: Steve Martino, Mike Thurmeier
    Gui?n: Michael Berg, Jason Fuchs, Mike Reiss
    Reparto: (Voces de) Ray Romano, Queen Latifah, Denis Leary, John Leguizamo, Seann William Scott, Josh Peck, Jeremy Renner, Wanda Sykes, Keke Palmer, Jennifer Lopez, Aziz Ansari, Drake, Nick Frost, JB Smoove, Joy Behar, Heather Morris, Josh Gad, Alan Tudyk, Kunal Nayyar, Nicki Minaj, Alain Chabat
    Calificaci?n: Apta para todos los p?blicos



  • C?digo:
  • General
    Complete name                    : La Era del Hielo 4 2012 BDRip 1080p 3D SBS Latino Chamako.mkv
    Format                           : Matroska
    Format version                   : Version 2
    File size                        : 9.47 GiB
    Duration                         : 1h 27mn
    Overall bit rate                 : 15.4 Mbps
    Movie name                       : Chamako - La Era del Hielo 4 2012 3D SBS 1080P Latino
    Encoded date                     : UTC 2012-10-16 11:15:07
    Writing application              : mkvmerge v4.4.0 ('Die Wiederkehr') built on Oct 31 2010 21:52:48
    Writing library                  : libebml v1.0.0 + libmatroska v1.0.0
    
    Video
    ID                               : 1
    Format                           : AVC
    Format/Info                      : Advanced Video Codec
    Format profile                   : [email protected]
    Format settings, CABAC           : Yes
    Format settings, ReFrames        : 2 frames
    Muxing mode                      : Header stripping
    Codec ID                         : V_MPEG4/ISO/AVC
    Duration                         : 1h 27mn
    Bit rate                         : 13.2 Mbps
    Width                            : 1 920 pixels
    Height                           : 1 080 pixels
    Display aspect ratio             : 16:9
    Frame rate                       : 23.976 fps
    Color space                      : YUV
    Chroma subsampling               : 4:2:0
    Bit depth                        : 8 bits
    Scan type                        : Progressive
    Bits/(Pixel*Frame)               : 0.265
    Stream size                      : 8.08 GiB (85%)
    Title                            : Chamako - La Era del Hielo 4 2012
    Writing library                  : x264 core
    Language                         : English
    Default                          : Yes
    Forced                           : No
    Color primaries                  : BT.709-5, BT.1361, IEC 61966-2-4, SMPTE RP177
    Transfer characteristics         : BT.709-5, BT.1361
    Matrix coefficients              : BT.709-5, BT.1361, IEC 61966-2-4 709, SMPTE RP177
    
    Audio #1
    ID                               : 2
    Format                           : DTS
    Format/Info                      : Digital Theater Systems
    Muxing mode                      : Header stripping
    Codec ID                         : A_DTS
    Duration                         : 1h 27mn
    Bit rate mode                    : Constant
    Bit rate                         : 1 510 Kbps
    Channel(s)                       : 6 channels
    Channel positions                : Front: L C R, Side: L R, LFE
    Sampling rate                    : 48.0 KHz
    Bit depth                        : 24 bits
    Compression mode                 : Lossy
    Delay relative to video          : 11ms
    Stream size                      : 948 MiB (10%)
    Title                            : English DTS
    Language                         : English
    Default                          : No
    Forced                           : No
    
    Audio #2
    ID                               : 3
    Format                           : AC-3
    Format/Info                      : Audio Coding 3
    Mode extension                   : CM (complete main)
    Muxing mode                      : Header stripping
    Codec ID                         : A_AC3
    Duration                         : 1h 27mn
    Bit rate mode                    : Constant
    Bit rate                         : 448 Kbps
    Channel(s)                       : 6 channels
    Channel positions                : Front: L C R, Side: L R, LFE
    Sampling rate                    : 48.0 KHz
    Bit depth                        : 16 bits
    Compression mode                 : Lossy
    Stream size                      : 281 MiB (3%)
    Title                            : Latino 5.1
    Language                         : Spanish
    Default                          : No
    Forced                           : Yes
    
    Text
    ID                               : 4
    Format                           : UTF-8
    Codec ID                         : S_TEXT/UTF8
    Codec ID/Info                    : UTF-8 Plain Text
    Title                            : Spanish
    Language                         : Spanish
    Default                          : No
    Forced                           : No








    ARCHIVO DE RECUPERACI?N + 1 SFV DE COMPROBACI?N DE RAR
    A?adir el link al Jdownloader o MiPony, y empieza a descargar del host que mas te agrade
    SERVIDORES DISPONIBLES

    La Era de Hielo 4 (2012) [3D SBS][BDRip 1080p][Espa?ol Latino 5.1/Ingles DTS]

    CONTRASE?A: chamako (todo minusculas)

    Si Algun link cae solo enviame un MP con el link del post y lo resubir?

    Opciones
    Estadísticas
    Creado
    Categoría Downloads
    • 0
      Medallas
    • 0
      Favoritos
    • 0
      Visitas
    • 0
      Puntos
    • 0
      Seguidores
    Comentarios
    0
    Cargando comentarios espera un momento...
    No tienes permisos para comentar.

    Para poder comentar necesitas estar Registrado. O.. ya tienes usuario? Logueate!
    Autor del post
    Ver perfil de misterpirata misterpirata
    Hombre Administrador  Mensaje
    1 22,550 1
    Medallas
    No tiene medallas
    Tags
    Posts relacionados